[演唱会]未来有你 MIKU WITH YOU 2021 AR Live[20211225 BiliBili Live]

[演唱会]未来有你 MIKU WITH YOU 2021 AR Live[20211225 BiliBili Live]

下载自 https://www.bilibili.com/bangumi/play/ss40149/ “1080p 高码率”

编码信息


Input #0, mov,mp4,m4a,3gp,3g2,mj2, from '「MIKU WITH YOU 2021 AR Live」[20211225][初音ミク][BiliBili Live].mp4':
Metadata:
major_brand : isom
minor_version : 512
compatible_brands: isomiso2avc1mp41
encoder : Lavf58.76.100
description : Packed by Bilibili XCoder v2.0.2
Duration: 01:19:28.49, start: 0.000000, bitrate: 6155 kb/s
Stream #0:0(und): Video: h264 (High) (avc1 / 0x31637661), yuv420p(tv, bt709), 1920x1080 [SAR 1:1 DAR 16:9], 5829 kb/s, 23.98 fps, 23.98 tbr, 16k tbn, 47.95 tbc (default)
Metadata:
handler_name : VideoHandler
vendor_id : [0][0][0][0]
Stream #0:1(und): Audio: aac (LC) (mp4a / 0x6134706D), 48000 Hz, stereo, fltp, 320 kb/s (default)
Metadata:
handler_name : SoundHandler
vendor_id : [0][0][0][0]

磁力 magnet:?xt=urn:btih:dde4236a24509560cd68cf567f6471d298e7f4ac

种子 https://nyaa.si/view/1471420

非录屏,用脚本从B站下的,水印似乎没办法去掉(?

先放个度盘,其他盘后面慢慢补…

此内容查看价格为2次元币,VIP 5折、终身VIP免费,请先

资源来源于网络采集,若下载链接失效不补。

0

评论0

请先

显示验证码
没有账号? 注册  忘记密码?